MD5
247b3b6064de561fc6d29817d45c060d
SHA1
b7d9cc62e75c807f9f2a9cf26195087191322720
  • Анонимно
  • Скачан 266 раз
  • Metalink
  • QR

Общее

Количество файлов: 1

Описание

Мстители - Сильнейшие Герои Земли / The Avengers - Earth's Mightiest Heroes
Страна: сша
Жанр: фантастика
Сезон (количество): 1 (1)
Серии (количество): 7-19 (52)
Продолжительность: 00:22:00
Год выпуска: 2010
Перевод: Субтитры
Русские субтитры: есть
Описание: Неизвестная сила наносит удар по четырем тюрьмам для сверхлюдей, и десятки опаснейших суперзлодеев вырываются на свободу, самые могучие супергерои объединяются в альянс под названием Мстители, чтобы вернуть вырвавшееся на свободу зло за решетку и остановить Гравитрона, который кстати и стоял за нападением на тюрьмы. В первых эпизодах Мстители предстанут в классическом составе: Человек-Муравей, Халк, Железный человек, Тор и Оса. Капитан Америка, Черная Пантера и Соколиный Глаз присоединятся к команде уже на протяжении сериала.
Список серий:
07 - Breakout: Part 2 (Прорыв: Часть 2)
08 - Some Assembly Required (Необходимое Собрание)
09 - Living Legend (Живая Легенда)
10 - Everything is Wonderful (Все Чудесно)
11 - Panther's Quest (Поиск Пантеры)
12, 13 - Gamma World, Part 1-2 (Гамма-мир, часть 1-2)
14 - Masters Of Evil (Властелины Зла)
15 - 459 (459)
16 - Widow's Sting (Жало Вдовы)
17 - The Man Who Stole Tomorrow (Человек, Который Украл Завтра)
18 - Come the Conqueror (Появление Завоевателя)
19 - The Kang Dynasty (Династия Кэнга)
20 - Along Came The Spider-Man (Появление Человека-Паука) (Премьера 30 января)
21 - To Kill a Mockingbird (Убить Пересмешника) (Премьера 6 февраля)
22 - Marvelous (Изумительный) (Премьера 13 февраля)
23 - Без названия (Премьера 20 февраля)
24 - Obsessions of Doom (Одержимость Дума) (Премьера 27 февраля)
25 - War of the Worlds: Part 1 (Война Миров: Часть 1) (Премьера 6 марта)
26 - War of the Worlds: Part 2 (Война Миров: Часть 2) (Премьера 13 марта)

Доп. информация:
1-6 серии в нормальном качестве и озвучке - http://rutracker.org/forum/viewtopic.php?t=3278905
Содрано с сайта , названия и нумерация серий тоже от туда.
Все раздачи мультсериала
Качество: WEBRip
Формат: MP4
Видео: AVC1, 640х360, 12,5-25 кадр/сек, 450 Кбит/сек
Аудио: AAC, Английская, 128 Кбит/сек, 2 канала(ов), 44,0 КГц
Субтитры: русские

Подробные технические данные

Format : MPEG-4
Format profile : Base Media
Codec ID : isom
File size : 93.7 MiB
Duration : 23mn 2s
Overall bit rate : 569 Kbps
Writing application : Lavf52.40.0
Video
ID : 1
Format : AVC
Format/Info : Advanced Video Codec
Format profile : Baseline@L3.0
Format settings, CABAC : No
Format settings, ReFrames : 1 frame
Codec ID : avc1
Codec ID/Info : Advanced Video Coding
Duration : 23mn 1s
Bit rate mode : Variable
Bit rate : 436 Kbps
Nominal bit rate : 450 Kbps
Width : 640 pixels
Height : 360 pixels
Display aspect ratio : 16:9
Frame rate mode : Variable
Frame rate : 25.000 fps
Minimum frame rate : 12.500 fps
Maximum frame rate : 25.000 fps
Resolution : 8 bits
Colorimetry : 4:2:0
Scan type : Progressive
Bits/(PixelFrame) : 0.076
Stream size : 71.9 MiB (77%)
Writing library : x264 core 79
Encoding settings : cabac=0 / ref=1 / deblock=1:0:0 / analyse=0x1:0x131 / me=tesa / subme=9 / psy=1 / psy_rd=1.0:0.0 / mixed_ref=0 / me_range=24 / chroma_me=1 / trellis=0 / 8x8dct=0 / cqm=0 / deadzone=21,11 / chroma_qp_offset=-2 / threads=24 / nr=0 / decimate=1 / mbaff=0 / constrained_intra=0 / bframes=0 / wpredp=0 / keyint=250 / keyint_min=25 / scenecut=40 / rc_lookahead=40 / rc=cbr / mbtree=1 / bitrate=450 / ratetol=8.9 / qcomp=0.60 / qpmin=10 / qpmax=51 / qpstep=4 / vbv_maxrate=10000 / vbv_bufsize=10000 / ip_ratio=1.41 / aq=1:1.00
Audio
ID : 2
Format : AAC
Format/Info : Advanced Audio Codec
Format version : Version 4
Format profile : LC
Format settings, SBR : No
Codec ID : 40
Duration : 23mn 2s
Bit rate mode : Variable
Bit rate : 128 Kbps
Channel(s) : 2 channels
Channel positions : Front: L R
Sampling rate : 44.1 KHz
Stream size : 21.1 MiB (23%)

Скриншоты

Download
Сайт не распространяет и не хранит электронные версии произведений, а лишь предоставляет доступ к создаваемому пользователями каталогу ссылок на торрент-файлы, которые содержат только списки хеш-сумм
Список файлов

Ссылка: Код для блога или сайта: Ссылка для форума: